+ sintogel.net »  :::: Bollywood Zone » Bollywood Movies (Original Rips) » HEVC / H.265 Releases
|- Jodhaa Akbar (2008) 4K UHD 2160p HEVC x264 10 Bits DTS-HDMA 6.1 MSubs -DDR


10% SBI and 10% Discount

Jodhaa Akbar (2008) 4K UHD 2160p HEVC x264 10 Bits DTS-HDMA 6.1 MSubs -DDR

0 Members and 1 Guest are viewing this topic.

July 25, 2018, 01:44:48 PM
  • Legend
  • Legend Member
  • ***
  • Topic Author
  • Thank You: 1430
  • Reputation: 402
  • Activity:
    100%
  • Country: in
  • Posts: 3611
  • Topics: 3493
  • Join Date: Sep 2013
  • The Pirate
  • Expertises:
  • Bollywood Movies
  • Hollywood Movies


Jodhaa Akbar

4K-UHD | 2160p | DTS-HDMA 6.1

HEVC x265 10 Bits Encode

English & French subtitle(s)


Source : *** BODEGA FRENCH Blu-ray version ***

Format                                  : Matroska
File size                                : 53.0 GiB
Duration                                : 3h 33mn
Overall bit rate                        : 35.5 Mbps
Encoded date                            : UTC 2016-06-08 02:23:33

Video
Format                                  : HEVC
Format/Info                              : High Efficiency Video Coding
Format profile                          : Main [email protected]@Main
Codec ID                                : V_MPEGH/ISO/HEVC
Duration                                : 3h 33mn
Bit rate                                : 33.1 Mbps
Width                                    : 3 840 pixels
Height                                  : 1 632 pixels
Display aspect ratio                    : 2.35:1
Frame rate mode                          : Constant
Frame rate                              : 24.000 fps
Color space                              : YUV
Chroma subsampling                      : 4:2:0
Bit depth                                : 10 bits
Bits/(Pixel*Frame)                      : 0.220
Stream size                              : 49.5 GiB (93%)

Audio
Format                                  : DTS
Format/Info                              : Digital Theater Systems
Format profile                          : MA / ES Discrete / Core
Duration                                : 3h 33mn
Bit rate mode                            : Variable / Constant / Constant
Bit rate                                : 2 320 Kbps / 1 152 Kbps / 1 152 Kbps
Channel(s)                              : 7 channels / 7 channels / 6 channels
Channel positions                        : Front: L C R, Side: L R, Back: C, LFE / Front: L C R, Side: L R, Back: C, LFE / Front: L C R, Side: L R, LFE
Sampling rate                            : 48.0 KHz
Frame rate                              : 93.750 fps (512 spf)
Bit depth                                : 16 bits
Compression mode                        : Lossless / Lossy / Lossy
Stream size                              : 3.47 GiB (19%)
Language                                : Hindi
Default                                  : Yes
Forced                                  : No


A DDR 8th Anniversary Release


Code: [Select]
Jodhaa Akbar (2008) 4K UHD 2160p HEVC x264 10 Bits DTS-HDMA 6.1 MSubs -DDR
http://uptobox.com/x8izhvmrqgw6 : Jodhaa Akbar (2008) 4K UHD 2160p HEVC x264 10 Bits DTS-HDMA 6.1 MSubs -DDR.part1.rar
http://uptobox.com/53x9cwilscr6 : Jodhaa Akbar (2008) 4K UHD 2160p HEVC x264 10 Bits DTS-HDMA 6.1 MSubs -DDR.part2.rar
http://uptobox.com/tgh9xkw7r5q3 : Jodhaa Akbar (2008) 4K UHD 2160p HEVC x264 10 Bits DTS-HDMA 6.1 MSubs -DDR.part3.rar
http://uptobox.com/2nuw28wcj4ls : Jodhaa Akbar (2008) 4K UHD 2160p HEVC x264 10 Bits DTS-HDMA 6.1 MSubs -DDR.part4.rar
http://uptobox.com/8oqd5qgy72o5 : Jodhaa Akbar (2008) 4K UHD 2160p HEVC x264 10 Bits DTS-HDMA 6.1 MSubs -DDR.part5.rar
http://uptobox.com/13ehbyyf6xho : Jodhaa Akbar (2008) 4K UHD 2160p HEVC x264 10 Bits DTS-HDMA 6.1 MSubs -DDR.part6.rar

Share this topic on FacebookShare this topic on GoogleShare this topic on MySpaceShare this topic on TwitterShare this topic on Yahoo




Bacheyan te mardan de vich,
Difference tan hunda ei aa,

Tags:
 

Related Topics





Back to top
Sitemap