+ sintogel.net »  :::: Bollywood Zone » Bollywood Movies (Original Rips) » HEVC / H.265 Releases
|- Andaz.Apna.Apna.1994.1080p.BluRay.x265.HEVC.10bit.AAC.5.1.Hindi.Natty-QxR


Mastercard 10% Off

Andaz.Apna.Apna.1994.1080p.BluRay.x265.HEVC.10bit.AAC.5.1.Hindi.Natty-QxR

0 Members and 1 Guest are viewing this topic.

August 06, 2018, 07:02:55 PM
  • Legend
  • Legend Member
  • ***
  • Topic Author
  • Thank You: 1430
  • Reputation: 402
  • Activity:
    100%
  • Country: in
  • Posts: 3611
  • Topics: 3493
  • Join Date: Sep 2013
  • The Pirate
  • Expertises:
  • Bollywood Movies
  • Hollywood Movies


General
Format : Matroska
Format version : Version 4 / Version 2
File size : 4.22 GiB
Duration : 2 h 40 min
Overall bit rate : 3 777 kb/s
Encoded date : UTC 2018-08-04 22:09:21
Writing application : mkvmerge v25.0.0 ('Prog Noir') 64-bit
Writing library : libebml v1.3.6 + libmatroska v1.4.9
Writing frontend : Natty

Video
ID : 1
Format : HEVC
Format/Info : High Efficiency Video Coding
Format profile : Main [email protected]@Main
Codec ID : V_MPEGH/ISO/HEVC
Duration : 2 h 40 min
Bit rate : 3 520 kb/s
Width : 1 920 pixels
Height : 798 pixels
Display aspect ratio : 2.40:1
Frame rate mode : Constant
Frame rate : 24.000 FPS
Color space : YUV
Chroma subsampling : 4:2:0
Bit depth : 10 bits
Bits/(Pixel*Frame) : 0.096
Stream size : 3.94 GiB (93%)
Writing library : x265 2.8+57-eea92165b035:[Windows][MSVC 1914][64 bit] 10bit
Encoding settings : cpuid=1111039 / frame-threads=2 / numa-pools=4 / wpp / no-pmode / no-pme / no-psnr / no-ssim / log-level=2 / input-csp=1 / input-res=1920x798 / interlace=0 / total-frames=230527 / level-idc=0 / high-tier=1 / uhd-bd=0 / ref=5 / no-allow-non-conformance / no-repeat-headers / annexb / no-aud / no-hrd / info / hash=0 / no-temporal-layers / open-gop / min-keyint=24 / keyint=400 / gop-lookahead=0 / bframes=8 / b-adapt=2 / b-pyramid / bframe-bias=0 / rc-lookahead=100 / lookahead-slices=4 / scenecut=40 / radl=0 / no-intra-refresh / ctu=32 / min-cu-size=8 / no-rect / no-amp / max-tu-size=16 / tu-inter-depth=1 / tu-intra-depth=1 / limit-tu=0 / rdoq-level=2 / dynamic-rd=0.00 / no-ssim-rd / signhide / no-tskip / nr-intra=0 / nr-inter=0 / no-constrained-intra / no-strong-intra-smoothing / max-merge=2 / limit-refs=3 / limit-modes / me=3 / subme=5 / merange=57 / temporal-mvp / weightp / weightb / no-analyze-src-pics / deblock=-3:0 / no-sao / no-sao-non-deblock / rd=4 / no-early-skip / rskip / no-fast-intra / no-tskip-fast / no-cu-lossless / no-b-intra / no-splitrd-skip / rdpenalty=0 / psy-rd=1.50 / psy-rdoq=0.50 / no-rd-refine / no-lossless / cbqpoffs=0 / crqpoffs=0 / rc=crf / crf=24.0 / qcomp=0.60 / qpstep=4 / stats-write=0 / stats-read=0 / ipratio=1.40 / pbratio=1.30 / aq-mode=3 / aq-strength=1.00 / cutree / zone-count=0 / no-strict-cbr / qg-size=32 / no-rc-grain / qpmax=69 / qpmin=0 / no-const-vbv / sar=0 / overscan=0 / videoformat=5 / range=0 / colorprim=1 / transfer=1 / colormatrix=1 / chromaloc=0 / display-window=0 / max-cll=0,0 / min-luma=0 / max-luma=1023 / log2-max-poc-lsb=8 / vui-timing-info / vui-hrd-info / slices=1 / no-opt-qp-pps / no-opt-ref-list-length-pps / no-multi-pass-opt-rps / scenecut-bias=0.05 / no-opt-cu-delta-qp / no-aq-motion / no-hdr / no-hdr-opt / no-dhdr10-opt / no-idr-recovery-sei / analysis-reuse-level=8 / scale-factor=0 / refine-intra=0 / refine-inter=0 / refine-mv=0 / no-limit-sao / ctu-info=0 / no-lowpass-dct / refine-mv-type=0 / copy-pic=1 / max-ausize-factor=1.0 / no-dynamic-refine / no-single-sei
Default : Yes
Forced : No
Color range : Limited
Color primaries : BT.709
Transfer characteristics : BT.709
Matrix coefficients : BT.709

Audio
ID : 2
Format : AAC
Format/Info : Advanced Audio Codec
Format profile : LC
Codec ID : A_AAC
Duration : 2 h 40 min
Bit rate : 239 kb/s
Channel(s) : 6 channels
Channel positions : Front: L C R, Side: L R, LFE
Sampling rate : 48.0 kHz
Frame rate : 46.875 FPS (1024 spf)
Compression mode : Lossy
Delay relative to video : 20 ms
Stream size : 273 MiB (6%)
Language : Hindi
Default : No
Forced : No

Subtitle
ID : 3
Format : PGS
Muxing mode : zlib
Codec ID : S_HDMV/PGS
Codec ID/Info : Picture based subtitle format used on BDs/HD-DVDs
Duration : 2 h 37 min
Bit rate : 40.6 kb/s
Count of elements : 5036
Stream size : 45.7 MiB (1%)
Language : English
Default : No
Forced : No

Menu
00:00:00.000 : en:Chapter 01
00:02:23.750 : en:Chapter 02
00:16:09.791 : en:Chapter 03
00:19:53.208 : en:Chapter 04
00:25:15.833 : en:Chapter 05
00:29:50.375 : en:Chapter 06
00:33:47.208 : en:Chapter 07
00:44:35.250 : en:Chapter 08
00:54:00.666 : en:Chapter 09
01:03:53.416 : en:Chapter 10
01:09:32.916 : en:Chapter 11
01:13:45.083 : en:Chapter 12
01:22:30.666 : en:Chapter 13
01:27:42.833 : en:Chapter 14
01:37:22.750 : en:Chapter 15
01:43:20.541 : en:Chapter 16
01:51:49.708 : en:Chapter 17
01:54:26.583 : en:Chapter 18
01:57:47.250 : en:Chapter 19
02:06:58.250 : en:Chapter 20
02:19:39.500 : en:Chapter 21


Andaz Apna Apna (1994) (1080p BluRay x265 HEVC 10bit AAC 5.1 Hindi Natty)
: Andaz Apna Apna (1994) (1080p BluRay x265 Natty).mkv
: Main Menu.mkv

Share this topic on FacebookShare this topic on GoogleShare this topic on MySpaceShare this topic on TwitterShare this topic on Yahoo




Bacheyan te mardan de vich,
Difference tan hunda ei aa,

Thanks given by:


Tags:
 

Related Topics





Back to top
Sitemap